#TITLE:Where Is The Love;
#SUBTITLE:;
#ARTIST:Black Eyed Peas;
#TITLETRANSLIT:Where Is The Love;
#SUBTITLETRANSLIT:;
#ARTISTTRANSLIT:Mat Bo Cau;
#CREDIT:;
#BANNER:Where Is The Love-bn.png;
#BACKGROUND:Where Is The Love-bg.png;
#LYRICSPATH:;
#CDTITLE:pm4cd.png;
#MUSIC:Where Is The Love.mp3;
#OFFSET:-0.060;
#SAMPLESTART:123.210;
#SAMPLELENGTH:20.000;
#SELECTABLE:YES;
#BPMS:0.000=94.130;
#STOPS:;
#BGCHANGES:;
// cache tags:
#FIRSTBEAT:0.250;
#LASTBEAT:352.250;
#SONGFILENAME:Songs/Music V.I.P ^_^/Where Is The Love/Where Is The Love.sm;
#HASMUSIC:1;
#HASBANNER:1;
#MUSICLENGTH:227.692;
// end cache tags

//---------------dance-single - ----------------
#NOTES:
     dance-single:
     :
     Hard:
     9:
     0.681,0.909,1.000,0.149,1.000,618.000,374.000,34.000,0.000,113.000:
0000
1000
0000
0000
0000
0100
0000
0001
0000
0001
0000
0101
0000
1010
0000
0101
,
0000
1001
0000
0000
0000
0100
0000
0001
0000
0001
0000
0101
0000
1010
0000
1100
,
0000
1001
0000
0000
0000
0010
0000
1000
0000
1000
0000
0000
0000
0011
0000
0110
,
0000
1100
0000
0000
0000
0100
0000
0010
0000
0110
0000
1100
0000
0011
0000
1100
,
0000
1001
0000
0000
0000
0100
0000
0010
0000
0010
0000
1100
0000
0110
0000
0011
,
0000
1001
0000
0010
0000
1000
0000
1000
0000
1000
0000
0011
0000
1100
0000
0011
,
0000
1100
0000
0000
0000
0010
0000
0100
0000
0100
0000
0100
0000
0011
0000
1100
,
0000
1100
0000
0000
0000
0001
0000
0100
0000
0011
0000
1010
0000
1100
0000
0110
,
0000
1001
0000
0000
0000
0010
0000
1000
0000
0110
0000
0011
0000
1100
0000
1010
,
0000
1001
0000
0000
0000
0001
0000
0010
0000
1010
0000
1100
0000
0110
0000
0011
,
0000
1001
0000
0000
0000
1000
0000
0100
0000
0100
0000
0100
0000
1001
0000
0110
,
0000
0101
0000
0000
0000
0010
0000
1000
0000
1001
0000
1010
0000
0101
0000
1010
,
0000
0110
0000
0000
0000
0001
0000
1000
0000
1000
0000
0011
0000
0110
0000
1001
,
0000
1010
0000
0000
0000
0100
0000
0010
0000
0011
0000
0110
0000
1100
0000
0110
,
0000
1001
0000
0000
0000
0010
0000
1000
0000
1000
0000
1000
0000
1001
0000
0101
,
0000
1100
0000
0000
0000
0001
0000
0010
0000
1010
0000
0101
0000
1010
0000
0110
,
0000
1001
0000
0000
0000
0100
0000
0001
0000
0001
0000
0110
0000
0110
0000
1100
,
0000
0011
0000
0000
0000
0010
0000
1000
0000
0001
0000
0110
0000
1100
0000
0110
,
0000
0011
0000
0000
0000
0100
0000
0010
0000
0010
0000
0010
0000
1100
0000
0011
,
0000
0110
0000
0010
0000
2100
0000
0100
0000
0100
0000
0010
0000
0100
0000
0100
,
0000
3102
0000
0000
0000
0010
0000
1000
0000
0010
0000
0000
0000
0100
0000
0100
,
0000
0213
0000
0000
0000
0010
0000
0001
0000
1000
0000
0001
0000
0001
0000
0000
,
0000
1302
0000
0000
0000
0100
0000
0010
0000
0100
0000
0000
0000
1000
0000
1000
,
0000
0103
0000
0000
0000
0101
0000
0010
0000
1010
0000
0001
0000
0110
0000
1000
,
0000
1001
0000
0000
0000
1100
0000
0010
0000
0001
0000
0010
0000
0101
0000
1000
,
0000
0110
0000
0001
0000
0101
0000
0100
0000
1100
0000
0100
0000
0011
0000
0100
,
0000
1001
0000
0000
0000
1000
0000
0010
0000
1001
0000
0010
0000
1001
0000
0010
,
0000
0110
0000
0010
0000
1001
0000
0000
0000
0110
0000
0000
0000
1001
0000
0001
,
0000
0110
0000
0000
0000
0011
0000
0000
0000
1010
0000
1010
0000
1010
0000
0000
,
0000
0101
0000
0101
0000
0101
0000
0000
0000
0110
0000
0110
0000
0110
0000
0000
,
0000
0011
0000
0011
0000
0011
0000
0011
0000
0011
0000
0000
0000
0001
0000
0010
,
0000
1100
0000
0110
0000
0110
0000
0110
0000
0011
0000
0100
0000
1010
0000
0001
,
0000
1001
0000
0000
0000
0001
0000
0010
0000
0010
0000
0011
0000
2100
0000
0011
,
0000
0120
3000
0000
0030
1000
0000
0100
0000
0100
0000
0100
0000
0012
0000
0110
,
0000
1200
0003
1001
0300
0001
0000
0010
0000
0010
0000
0010
0000
1002
0000
1010
,
0000
1103
0000
0000
0000
0010
0000
1000
0000
1010
0000
1001
0000
0101
0000
0011
,
0000
0110
0000
0000
0000
0100
0000
0010
0000
0010
0000
0011
0000
1020
0000
0101
,
0000
1200
0030
0000
0300
0001
0000
0010
0000
0010
0000
1010
0000
2001
0000
0102
,
0000
0110
3000
0000
0003
0100
0000
0001
0000
0001
0000
0001
0000
1020
0000
0101
,
0000
1130
0000
0000
0000
0100
0000
1000
0000
1001
0000
1010
0000
1100
0000
0110
,
0000
0011
0000
0000
0000
0001
0000
0010
0000
0010
0000
0010
0000
2100
0000
0110
,
0000
0201
3000
0000
0300
0001
0000
0100
0000
0100
0000
0101
0000
0120
0000
1100
,
0000
0102
0030
0000
0003
0010
0000
0100
0000
0100
0000
0100
0000
0012
0000
1100
,
0000
0210
0003
0000
0300
0100
0000
1000
0000
1100
0000
1010
0000
1001
0000
0101
,
0000
0012
0000
0000
0000
1000
0000
0100
0000
0110
0000
1100
0000
1010
0000
0110
,
0000
2103
0000
0000
0000
0001
0000
0010
0000
0110
0000
0101
0000
0011
0000
0110
,
0000
3201
0000
0000
0000
0001
0000
0010
0000
1010
0000
1001
0000
0011
0000
1010
,
0000
0321
0000
0000
0000
1000
0000
0100
0000
0101
0000
1001
0000
1100
0000
0101
,
0000
1132
0000
0000
0000
1000
0000
0010
0000
1000
0000
0000
0000
0010
0000
0010
,
0000
2013
0000
0000
0000
0010
0000
0001
0000
0100
0000
0001
0000
0001
0000
0000
,
0000
3102
0000
0000
0000
1000
0000
0010
0000
1000
0000
0000
0000
0010
0000
0010
,
0000
1003
0000
0000
0000
1010
0000
0100
0000
0011
0000
0100
0000
1001
0000
0100
,
0000
0011
0000
0000
0000
1001
0000
0100
0000
0010
0000
0100
0000
0101
0000
0010
,
0000
1001
0000
0010
0000
1010
0000
0010
0000
1001
0000
0010
0000
1010
0000
0010
,
0000
1001
0000
0000
0000
1000
0000
0010
0000
1001
0000
0010
0000
1001
0000
0010
,
0000
0110
0000
0010
0000
1001
0000
0000
0000
0110
0000
0000
0000
1001
0000
0010
,
0000
1001
0000
0000
0000
0101
0000
0000
0000
1010
0000
1010
0000
1010
0000
0000
,
0000
0101
0000
0101
0000
0101
0000
0000
0000
1001
0000
1001
0000
1001
0000
0000
,
0000
1010
0000
1010
0000
1010
0000
1010
0000
1010
0000
0000
0000
0100
0000
0010
,
0000
1001
0000
0110
0000
0110
0000
0110
0000
1001
0000
0100
0000
1010
0000
0010
,
0000
2002
0000
0000
0000
0100
0000
0100
0000
0100
0000
0010
0000
0100
0000
0100
,
0000
3013
0000
0000
0000
1100
0000
1100
0000
1100
0000
0000
0000
0011
0000
0011
,
0000
0011
0000
0000
0000
0110
0000
0110
0000
0110
0000
0000
0000
1010
0000
1010
,
0000
1010
0000
0000
0000
0100
0000
0010
0000
1001
0000
0010
0000
1010
0000
0010
,
0000
0110
0000
0010
0000
1000
0000
0101
0000
1000
0000
1100
0000
1000
0100
1000
,
0000
0110
0000
0010
0000
0100
0000
0010
0000
0100
0000
0110
0000
0100
0010
0100
,
0000
1000
0000
0100
0000
0101
0000
0010
0000
1100
0000
0100
0000
0001
0010
0001
,
0000
1001
0000
0100
0000
0010
0000
0110
0000
1000
0000
0110
0000
0010
0000
0110
,
0000
1011
0000
0000
0000
1101
0000
1011
0000
1110
0000
0111
0000
0111
0000
1110
,
0000
0111
0000
0000
0000
1011
0000
1011
0000
0111
0000
0111
0000
1011
0000
1011
,
0000
1110
0000
0111
0000
0111
0000
1110
0000
0111
0000
1110
0000
1101
0000
0011
,
0000
1011
0000
0000
0000
0111
0000
0111
0000
1101
0000
0111
0000
1110
0000
0111
,
0000
0111
0000
0000
0000
1011
0000
1010
0000
0111
0000
1011
0000
1101
0000
0111
,
0000
1110
0000
0111
0000
1101
0000
1101
0000
0111
0000
1110
0000
0111
0000
1110
,
0000
1011
0000
1101
0000
1110
0000
0111
0000
1011
0000
1101
0000
1101
0000
0111
,
0000
1011
0000
1101
0000
1110
0000
0111
0000
1011
0000
1110
0000
1011
0000
0110
,
0000
2222
0000
0000
0000
0000
0000
0000
0000
3333
0000
0000
0000
0100
0000
0010
,
0000
1010
0000
0000
0000
1010
0000
0010
0000
0101
0000
0010
0000
1010
0000
0001
,
0000
1001
0000
0000
0000
0010
0000
1000
0000
0110
0000
0010
0000
1001
0000
0010
,
0000
0101
0000
0000
0000
0101
0000
0001
0000
1010
0000
0001
0000
0110
0000
0001
,
0000
1001
0000
0000
0000
0110
0000
0001
0000
1001
0000
0100
0000
0101
0000
0001
,
0000
1010
0000
0001
0000
0110
0000
0001
0000
0110
0000
0001
0000
1001
0000
0100
,
0000
0101
0000
0000
0000
1010
0000
0001
0000
0110
0000
0010
0000
1010
0000
1000
,
0000
0101
0000
0010
0001
0010
0000
0000
0000
0011
0000
1000
0000
0011
0000
1000
,
0000
2001
0000
0110
0000
0110
0000
0110
0000
0000
0000
0011
0000
3000
0000
1100
,
0000
0110
0000
0011
0000
0110
0000
1100
0000
0110
0000
0011
0000
1010
0000
1010
,
0000
0101
0000
0110
0000
0011
0000
1001
0000
0101
0000
0101
0000
1010
0000
1010
,
0000
1100
0000
0110
0000
0011
0000
1010
0000
1010
0000
0110
0000
0011
0000
0110
,
0000
1001
0000
0000
0000
0000
0000
0000
0000
0000
0000
0000
0000
0000
0000
0000
;

//---------------dance-single - ----------------
#NOTES:
     dance-single:
     :
     Easy:
     1:
     0.000,0.000,0.000,0.000,0.000,0.000,0.000,0.000,0.000,0.000:
0000
0000
0000
0000
;

//---------------dance-single - Copied from----------------
#NOTES:
     dance-single:
     Copied from:
     Medium:
     1:
     0.000,0.000,0.000,0.000,0.000,0.000,0.000,0.000,0.000,0.000:
0000
0000
0000
0000
;
